#TITLE:1000 PESO THEME X;
#SUBTITLE:THE POST-LEGEND OF CUSI;
#ARTIST:Cusi;
#TITLETRANSLIT:;
#SUBTITLETRANSLIT:;
#ARTISTTRANSLIT:;
#CREDIT:;
#BANNER:1000 PESO THEME X BANNER.PNG;
#BACKGROUND:1000 PESO THEME X BACKGROUND.PNG;
#LYRICSPATH:;
#CDTITLE:;
#MUSIC:1000 PESO THEME X.mp3;
#OFFSET:0.000;
#SAMPLESTART:100.020;
#SAMPLELENGTH:12.000;
#SELECTABLE:YES;
#BPMS:0.000=170.000,492.000=12000.084;
#STOPS:;
#BGCHANGES:;
// cache tags:
#FIRSTBEAT:0.000;
#LASTBEAT:492.000;
#SONGFILENAME:Songs/nhac/1000 PESO THEME X/1000 PESO THEME X.SM;
#HASMUSIC:1;
#HASBANNER:1;
#MUSICLENGTH:172.280;
// end cache tags

//---------------dance-single - ----------------
#NOTES:
     dance-single:
     :
     Challenge:
     1000000008:
     1.000,1.000,1.000,1.000,1.000,1843.000,399.000,243.000,0.000,108.000:
1000
0100
0010
0001
1000
0100
0010
0001
1000
0100
1000
0001
1000
0010
1000
0001
,
0010
0001
0010
0001
0010
0001
1000
0010
0100
0001
1000
0010
0100
0001
1000
0100
,
0010
0001
1000
0010
0100
0001
1000
0100
1000
0001
0010
0001
1000
0100
1000
0010
,
0100
0001
1000
0100
1000
0010
0100
0001
1000
0010
0100
0010
0100
0010
1000
0100
,
0010
0001
1000
0100
1000
0010
0100
0010
0100
0011
1000
0100
1000
0010
0100
0001
,
0100
0010
1000
0010
1000
0001
0010
0001
0010
0001
0100
0010
1000
0001
0010
0001
,
0100
0010
1000
0001
0010
0001
0100
0010
1000
0100
0010
0001
0010
0001
0100
0010
,
1000
0100
1000
0001
0010
0001
1000
0010
1000
0001
0100
0001
0010
0001
1000
0100
,
0010
0001
1000
0100
1000
0011
0100
0001
0010
0100
1000
0010
1000
0100
0010
0001
,
0100
0010
1000
0010
0100
0001
1000
0010
0100
0001
1000
0010
0100
0001
1000
0010
,
0100
0001
1000
0100
0010
0001
1000
0100
0010
0001
1000
0100
0010
0001
1000
0100
,
0010
0001
1000
0001
0100
0010
1000
0100
0010
0001
1000
0011
1000
0001
1000
0011
,
1000
0011
1000
0110
1000
0011
1100
0011
1100
0011
1100
0011
1100
0011
1100
0011
,
1000
0100
0010
0001
1100
0001
0110
0001
1110
0001
1010
0001
0100
0001
1000
0100
,
1000
0011
1000
0110
1000
0011
1000
0110
1000
0101
1000
0011
1000
0110
1000
0001
,
1000
0100
1000
0111
1000
0011
1000
0010
0100
0001
1000
0100
1000
0101
1000
0010
,
1000
0001
1000
0010
1000
0110
1000
0011
0100
1000
0110
1000
0011
1000
0110
1000
,
0011
1100
0011
1100
0011
1100
0001
1100
0010
1100
0001
1100
0011
1000
0100
0010
,
0001
1000
0011
1000
0011
1000
0110
1000
0022
1033
0220
1330
0022
1033
0220
1330
,
0222
1333
0222
1333
0010
0100
0001
1000
0110
1000
0110
1000
0011
1000
0110
1000
,
0010
1000
0101
1000
0010
1000
0101
1000
0011
1000
0100
1000
0010
1000
0011
1000
,
0101
1000
0110
1000
0001
1000
0111
1000
0110
1000
0111
1000
0011
1000
0100
1000
,
0101
1000
0010
1000
0101
1000
0010
1000
0111
1000
0010
0100
0001
0110
0001
0100
,
0001
1010
0001
0010
0001
0100
0001
1010
0001
0100
0001
1010
0001
1110
0001
0100
,
0010
1000
0100
1000
0001
0010
0001
1000
0100
1000
0001
0010
0001
1000
0010
1000
,
0001
0100
0001
1000
0010
0100
0001
0000
1000
0010
0100
0001
1000
0110
1000
0110
,
1000
0011
1000
0110
1000
0010
1000
0101
1000
0010
1000
0101
1000
0011
1000
0100
,
1000
0010
1000
0011
1000
0101
1000
0110
1000
0001
1000
0111
1000
0110
1000
0111
,
1000
0011
1000
0100
1000
0101
1000
0010
1000
0101
1000
0010
1000
0111
1000
0010
,
0100
0001
0110
0001
0100
0001
1010
0001
0010
0001
0100
0001
1010
0001
0100
0001
,
1010
0001
1110
0001
0100
0010
1000
0100
1000
0001
0010
0001
1000
0100
1000
0001
,
0010
0001
1000
0010
1000
0001
0100
0001
1000
0010
0100
0001
0000
2000
3200
0320
,
0032
2003
3020
0230
0302
2003
3200
2300
3200
2300
3002
0023
0032
0023
0032
0023
,
0032
2003
3020
0230
0302
2003
3020
0230
0302
2003
3200
0320
0032
2003
3020
0230
,
0302
2003
3200
2300
3002
0023
0032
2003
3200
2300
3020
0230
0302
2003
3200
2300
,
3020
0230
0302
2003
3020
0230
0320
0230
0320
2030
3200
0320
0032
2003
3200
2300
,
3020
0230
0320
0230
0302
2003
3200
2300
3020
0230
0302
0203
0320
2030
3020
2030
,
3002
0023
0032
0023
0032
0203
0320
2030
3002
0023
0031
0200
0320
2030
3002
0023
,
0032
0203
0320
2030
3200
0320
0032
0023
0032
0203
0320
2030
3200
2300
3002
0023
,
0032
2003
3020
2030
3002
0203
0302
0023
0032
2003
3200
0320
0032
1003
0100
1000
,
0001
0100
0001
0010
0100
1000
0020
2030
3200
0320
0032
0203
0320
2030
3020
0230
,
0302
2003
3020
0230
0302
2003
3020
0230
0302
2003
3020
0230
0302
2003
3200
0320
,
0032
2003
3200
0320
0032
2003
3200
0320
0032
2003
3200
0320
0032
2003
3002
0203
,
0320
2030
3200
0320
0032
1003
0001
1000
0001
1000
0001
1000
0011
2000
3220
2330
,
3022
2233
3322
2233
3322
2233
3322
2233
3322
2233
3322
2033
3200
0320
0032
2203
,
3302
0000
0000
0000
0000
0000
0000
0000
0000
0000
0000
0000
0223
0000
0000
0000
0000
0000
0000
0000
0000
0000
0000
0000
0332
0000
0000
0000
0000
0000
0000
0000
0000
0000
0000
0000
2223
0000
0000
0000
0000
0000
0000
0000
0000
0000
0000
0000
3332
0000
0000
0000
0000
0000
0000
0000
0000
0000
0000
0000
2023
0000
0000
0000
0000
0000
0000
0000
0000
0000
0000
0000
3032
0000
0000
0000
0000
0000
0000
0000
0000
0000
0000
0000
0203
0000
0000
0000
0000
0000
0000
0000
0000
0000
0000
0000
0302
0000
0000
0000
0000
0000
0000
0000
0000
0000
0000
0000
2003
0000
0000
0000
0000
0000
0000
0000
0000
0000
0000
0000
3200
0000
0000
0000
0000
0000
0000
0000
0000
0000
0000
0000
2300
0000
0000
0000
0000
0000
0000
0000
0000
0000
0000
0000
3022
0000
0000
0000
0000
0000
0000
0000
0000
0000
0000
0000
2033
3000
0000
0000
0000
0000
0000
0000
0000
0000
0000
0000
0100
0000
0000
0000
0000
0000
0000
0000
0000
0000
0000
0000
0010
0000
0000
0000
0000
0000
0000
0000
0000
0000
0000
0000
,
0001
1000
0101
1000
0110
1000
0011
1000
0100
1000
0101
1000
0010
1000
0101
1000
,
0110
1000
0011
1100
0011
1100
0011
1100
0011
1100
0011
1100
0011
1000
0100
0010
,
0001
0010
0101
0000
0110
1001
0110
1001
0110
1001
0110
1001
0110
1001
0110
1001
,
0110
1001
0110
1001
0110
1001
0110
1001
0110
0000
1000
0100
0010
0001
1000
0010
,
0100
0001
1000
0100
0010
0001
1100
0011
1100
0011
1100
0011
1000
0010
0100
0001
,
1100
0011
1100
0011
1100
0011
1100
0011
1100
0011
1100
0011
1100
0011
1100
0011
,
1100
0011
1100
0011
1100
0011
1000
0010
0100
0001
1010
0101
1010
0101
1010
0101
,
1010
0101
1010
0101
1010
0101
1010
0101
1010
0101
1010
0101
1010
0101
1010
0101
,
1010
0101
1010
0101
1010
0101
1010
0101
1010
0101
0000
1000
0100
0010
0001
1000
,
0010
0100
0001
1000
0100
0010
0001
1100
0011
1100
0011
1100
0011
1000
0010
0100
,
0001
1100
0011
1100
0011
1100
0011
1100
0011
1100
0011
1100
0011
1100
0011
1100
,
0011
1100
0011
1100
0011
1100
0011
1000
0010
0100
0001
1010
0101
1010
0101
1010
,
0101
1010
0101
1010
0101
1010
0101
1010
0101
1010
0101
1010
0101
1010
0101
1010
,
0101
1010
0101
1010
0101
1010
0101
1010
0101
1010
0101
1000
0100
0010
0001
1000
,
0000
1100
0000
0110
0000
0011
0000
1001
0000
0110
0000
1010
0000
0101
0000
1001
,
0000
0110
0000
1110
0000
0111
0000
1101
0000
1011
0000
0111
0000
1011
0000
1101
,
0000
0110
0000
1100
0000
0011
0000
1001
0000
1010
0000
0101
0000
1110
0000
0111
,
0000
1011
0000
1111
0000
1101
0000
0111
0000
1011
0000
1111
0000
1110
0000
1111
,
0000
0111
0000
1100
0000
0011
0000
1111
0000
1010
0000
0101
0000
1111
0000
0011
,
0000
1100
0000
1111
0000
0110
0000
1001
0000
1111
0000
0110
0000
1001
0000
1001
,
0000
1100
0000
0011
0000
1110
0000
1111
0000
0111
0000
1011
0000
1111
0000
1101
,
0000
1111
0000
1010
0000
0101
0000
1110
0000
1101
0000
1101
0000
1011
0000
0111
,
0000
1000
0100
0010
0001
1000
0100
1000
0001
0010
0001
1000
0100
1000
0001
0010
,
0001
1000
0100
0010
0001
1000
0100
0010
0001
1000
0100
0010
0001
1000
0100
1000
,
0001
0010
0001
1000
0100
1000
0001
0010
0001
1000
0100
1000
0100
1000
0001
1000
,
0001
1000
0001
1000
0001
1000
0010
1000
0010
1000
0010
1000
0100
1000
0011
0100
,
0011
1000
0100
1000
0011
0100
0011
1000
0100
1000
0011
0100
0011
1000
0011
1000
,
0011
1000
0010
0100
0001
1000
0100
1000
0111
1000
0101
1000
0011
1000
0100
1000
,
0001
0010
0100
1000
0100
0010
0001
1000
0010
0100
0001
1000
0011
1000
0100
0010
,
0001
1000
0101
1000
0101
1000
0010
1000
0101
1000
0100
1000
0101
1000
0010
1000
,
0011
1000
0100
0010
0001
1000
0010
0100
0001
1000
0100
0010
0001
1000
0010
0100
,
0001
1000
0100
0010
0001
1000
0100
0010
0001
1000
0010
1000
0010
1000
0001
1000
,
0001
1000
0100
0010
0001
1000
0010
0100
0001
1000
0010
0100
0001
1000
0010
0100
,
0001
1000
0100
0010
0001
1000
0100
0010
0101
1000
0100
0010
0101
1000
0100
0010
,
0101
1000
0100
0010
0101
1000
0001
1000
0001
1000
0100
0010
0001
1000
0010
0100
,
0001
1000
0010
0100
0001
1000
0010
0100
0001
1000
0010
0100
0001
1000
0100
0010
,
0001
1000
0010
0100
0001
1000
0010
0100
0001
1000
0100
1000
0010
0100
0010
1000
,
0100
1000
0010
0100
0001
1000
0100
1000
0001
0010
0001
1000
0100
1000
0001
0100
,
0010
0100
0010
1000
0001
1000
0001
1000
0010
0100
0001
0100
0010
1000
0010
1000
,
0010
1000
0010
1000
0010
1000
0001
0100
0010
1000
0010
0100
0001
1000
0010
0100
,
0010
1000
0001
0010
0001
0010
0001
1000
0100
1000
0100
1000
0100
0010
0001
1000
,
0100
0010
0001
1000
0010
0100
0001
1000
0111
1000
0111
1000
0111
1000
0111
1000
,
0111
1000
0111
1000
0100
1000
0001
1000
0111
1000
0110
1000
0011
0000
1000
0010
,
0100
0001
1000
0100
1000
0001
0010
0001
1000
0100
1000
0001
0100
0010
0100
0010
,
1000
0001
1000
0001
1000
0010
0100
0001
0100
0010
1000
0010
1000
0010
1000
0010
,
1000
0010
1000
0001
0100
0010
1000
0010
0100
0001
1000
0010
0100
0010
1000
0001
,
0010
0001
0010
0001
1000
0100
1000
0100
1000
0100
0010
0001
1000
0100
0010
0001
,
1000
0010
0100
0001
1000
0111
1000
0111
1000
0111
1000
0111
1000
0111
1000
0111
,
1000
0100
1000
0001
1000
0111
1000
0110
1000
0011
0100
0001
1000
0010
0100
0001
,
1000
0100
1000
0001
0010
0001
1000
0100
1000
0001
0100
0010
0100
0010
1000
0001
,
1000
0001
1000
0010
0100
0001
0100
0010
1000
0010
1000
0010
1000
0010
1000
0010
,
1000
0001
0100
0010
1000
0010
0100
0001
1000
0010
0100
0010
1000
0001
0010
0001
,
0010
0001
1000
0100
1000
0100
1000
0100
0010
0001
1000
0100
0010
0001
1000
0010
,
0100
0001
1000
0111
1000
0111
1000
0111
1000
0111
1000
0111
1000
0111
1000
0100
,
1000
0001
1000
0111
1000
0110
1000
0011
0000
1000
0100
1000
0100
0010
0100
1000
,
0100
0010
0001
1000
0001
1000
0001
1000
0100
0010
0001
1000
0010
0100
0001
1000
,
0010
0100
0001
1000
0010
0100
0001
1000
0010
0100
0001
1000
0100
0010
0001
1000
,
0010
0100
0001
1000
0010
0100
0001
1000
0100
1000
0010
0100
0010
1000
0100
1000
,
0010
0100
0001
1000
0100
1000
0001
0010
0001
1000
0100
1000
0001
0100
0010
0100
,
0010
1000
0001
1000
0001
1000
0010
0100
0001
0100
0010
1000
0010
1000
0010
1000
,
0010
1000
0010
1000
0001
0100
0010
1000
0010
0100
0001
1000
0010
0100
0010
1000
,
0001
0010
0001
0010
0001
1000
0100
1000
0100
1000
0100
0010
0001
1000
0100
0010
,
0001
1000
0010
0100
0001
1000
0111
1000
0111
1000
0111
1000
0111
1000
0111
1000
,
0111
1000
0100
1000
0001
1000
0111
1000
0110
1000
0100
0010
0001
1000
0001
0010
,
0001
1000
1000
0001
1000
0100
0010
0001
1000
0100
0010
0001
1000
0100
1000
0001
,
0010
0001
1000
0100
1000
0001
0010
0100
1000
0010
0100
0001
0100
0010
0100
0001
,
0100
0010
0001
1000
0001
1000
0001
1000
0100
0010
0001
1000
0010
0100
0001
1000
,
0010
0100
0001
1000
0010
0100
0001
1000
0010
0100
0001
1000
0100
0010
0001
1000
,
0010
0100
0001
1000
0010
0100
0001
1000
0100
1000
0010
0100
0010
1000
0100
1000
,
0010
0100
0001
1000
0100
1000
0001
0010
0001
1000
0100
1000
0001
0100
0010
0100
,
0010
1000
0001
1000
0001
1000
0010
0100
0001
0100
0010
1000
0010
1000
0010
1000
,
0010
1000
0010
1000
0001
0100
0010
1000
0010
0100
0001
1000
0010
0100
0010
1000
,
0001
0010
0001
0010
0001
1000
0100
1000
0100
1000
0100
0010
0001
1000
0100
0010
,
0001
1000
0010
0100
0001
1000
0111
1000
0111
1000
2222
0000
0000
0000
0000
0000
,
0000
0000
0000
0000
,
0000
0000
0000
0000
,
0000
0000
0000
0000
,
3333
0000
0000
0000
;

//---------------dance-single - Copied from----------------
#NOTES:
     dance-single:
     Copied from:
     Hard:
     1000000008:
     1.000,1.000,1.000,1.000,1.000,1830.000,402.000,625.000,0.000,200.000:
2000
3200
0320
0032
2003
3200
0320
0032
2003
3200
2300
3002
2003
3020
2030
3002
,
0023
0032
0023
0032
0023
0032
2003
3020
0230
0302
2003
3020
0230
0302
2003
3200
,
0320
0032
2003
3020
0230
0302
2003
3200
2300
3002
0023
0032
2003
3200
2300
3020
,
0230
0302
2003
3200
2300
3020
0230
0302
2003
3020
0230
0320
0230
0320
2030
3200
,
0320
0032
2003
3200
2300
3020
0230
0320
0230
0302
2003
3200
2300
3020
0230
0302
,
0203
0320
2030
3020
2030
3002
0023
0032
0023
0032
0203
0320
2030
3002
0023
0031
,
0200
0320
2030
3002
0023
0032
0203
0320
2030
3200
0320
0032
0023
0032
0203
0320
,
2030
3200
2300
3002
0023
0032
2003
3020
2030
3002
0203
0302
0023
0032
2003
3200
,
0320
0032
1003
0200
2300
3002
0203
0302
0023
0230
2300
3020
2030
3200
0320
0032
,
0203
0320
2030
3020
0230
0302
2003
3020
0230
0302
2003
3020
0230
0302
2003
3020
,
0230
0302
2003
3200
0320
0032
2003
3200
0320
0032
2003
3200
0320
0032
2003
3200
,
0320
0032
2003
3002
0203
0320
2030
3200
0320
0032
2003
3002
2003
3002
2003
3002
,
2003
3022
2033
3220
2330
3022
2233
3322
2233
3322
2233
3322
2233
3322
2233
3322
,
2033
3200
0320
0032
2203
3302
0223
0332
2223
3332
2023
3032
0203
0302
2003
3200
,
2300
3022
2033
3220
2330
3022
2033
3220
2330
3202
2303
3022
2033
3220
2330
3002
,
2003
3220
2330
3222
2333
3022
2033
3020
0230
0302
2003
3200
2300
3202
2303
3020
,
2030
3002
2003
3020
2030
3220
2330
3022
0233
2300
3220
2330
3022
2033
3220
2330
,
3022
2233
3322
2233
3322
2233
3302
2203
3320
2230
3302
2203
3322
2033
3200
0320
,
0032
2003
3022
2033
3022
2033
3220
2330
3022
2033
3220
2330
3022
2033
3220
2330
,
3222
2333
3222
1333
0010
0100
0001
1000
0110
1000
0110
1000
0011
1000
0110
1000
,
0010
1000
0101
1000
0010
1000
0101
1000
0011
1000
0100
1000
0010
1000
0011
1000
,
0101
1000
0110
1000
0001
1000
0111
1000
0110
1000
0111
1000
0011
1000
0100
1000
,
0101
1000
0010
1000
0101
1000
0010
1000
0111
1000
0010
0100
0001
0110
0001
0100
,
0001
1010
0001
0010
0001
0100
0001
1010
0001
0100
0001
1010
0001
1110
0001
0100
,
0010
1000
0100
1000
0001
0010
0001
1000
0100
1000
0001
0010
0001
1000
0010
1000
,
0001
0100
0001
1000
0010
0100
0001
0000
1000
0010
0100
0001
1000
0110
1000
0110
,
1000
0011
1000
0110
1000
0010
1000
0101
1000
0010
1000
0101
1000
0011
1000
0100
,
1000
0010
1000
0011
1000
0101
1000
0110
1000
0001
1000
0111
1000
0110
1000
0111
,
1000
0011
1000
0100
1000
0101
1000
0010
1000
0101
1000
0010
1000
0111
1000
0010
,
0100
0001
0110
0001
0100
0001
1010
0001
0010
0001
0100
0001
1010
0001
0100
0001
,
1010
0001
1110
0001
0100
0010
1000
0100
1000
0001
0010
0001
1000
0100
1000
0001
,
0010
0001
1000
0010
1000
0001
0100
0001
1000
0010
0100
0001
0000
2000
3200
0320
,
0032
2003
3020
0230
0302
2003
3200
2300
3200
2300
3002
0023
0032
0023
0032
0023
,
0032
2003
3020
0230
0302
2003
3020
0230
0302
2003
3200
0320
0032
2003
3020
0230
,
0302
2003
3200
2300
3002
0023
0032
2003
3200
2300
3020
0230
0302
2003
3200
2300
,
3020
0230
0302
2003
3020
0230
0320
0230
0320
2030
3200
0320
0032
2003
3200
2300
,
3020
0230
0320
0230
0302
2003
3200
2300
3020
0230
0302
0203
0320
2030
3020
2030
,
3002
0023
0032
0023
0032
0203
0320
2030
3002
0023
0031
0200
0320
2030
3002
0023
,
0032
0203
0320
2030
3200
0320
0032
0023
0032
0203
0320
2030
3200
2300
3002
0023
,
0032
2003
3020
2030
3002
0203
0302
0023
0032
2003
3200
0320
0032
1003
0200
2300
,
3002
0203
0302
0023
0230
2300
3020
2030
3200
0320
0032
0203
0320
2030
3020
0230
,
0302
2003
3020
0230
0302
2003
3020
0230
0302
2003
3020
0230
0302
2003
3200
0320
,
0032
2003
3200
0320
0032
2003
3200
0320
0032
2003
3200
0320
0032
2003
3002
0203
,
0320
2030
3200
0320
0032
2003
3002
2003
3002
2003
3002
2003
3022
2033
3220
2330
,
3022
2233
3322
2233
3322
2233
3322
2233
3322
2233
3322
2033
3200
0320
0032
2203
,
3302
0000
0000
0000
0000
0000
0000
0000
0000
0000
0000
0000
0223
0000
0000
0000
0000
0000
0000
0000
0000
0000
0000
0000
0332
0000
0000
0000
0000
0000
0000
0000
0000
0000
0000
0000
2223
0000
0000
0000
0000
0000
0000
0000
0000
0000
0000
0000
3332
0000
0000
0000
0000
0000
0000
0000
0000
0000
0000
0000
2023
0000
0000
0000
0000
0000
0000
0000
0000
0000
0000
0000
3032
0000
0000
0000
0000
0000
0000
0000
0000
0000
0000
0000
0203
0000
0000
0000
0000
0000
0000
0000
0000
0000
0000
0000
0302
0000
0000
0000
0000
0000
0000
0000
0000
0000
0000
0000
2003
0000
0000
0000
0000
0000
0000
0000
0000
0000
0000
0000
3200
0000
0000
0000
0000
0000
0000
0000
0000
0000
0000
0000
2300
0000
0000
0000
0000
0000
0000
0000
0000
0000
0000
0000
3022
0000
0000
0000
0000
0000
0000
0000
0000
0000
0000
0000
2033
3000
0000
0000
0000
0000
0000
0000
0000
0000
0000
0000
0100
0000
0000
0000
0000
0000
0000
0000
0000
0000
0000
0000
0010
0000
0000
0000
0000
0000
0000
0000
0000
0000
0000
0000
,
0001
1000
0101
1000
0110
1000
0011
1000
0100
1000
0101
1000
0010
1000
0101
1000
,
0110
1000
0011
1100
0011
1100
0011
2200
3322
2233
3322
2233
3322
1033
0100
0010
,
0001
0010
0101
0000
0110
1001
0110
1001
0110
1001
0110
1001
0110
1001
0110
1001
,
0110
1001
0110
1001
0110
1001
0110
1001
0220
0330
1000
0100
0010
0001
1000
0010
,
0100
0001
1000
0100
0010
0001
1100
0011
1100
0011
1100
0011
1000
0010
0100
0001
,
1100
0011
1100
0011
1100
0011
1100
0011
1100
0011
1100
0011
1100
0011
1100
0011
,
1100
0011
1100
0011
1100
0011
1000
0010
0100
0001
1010
0101
1010
0101
1010
0101
,
1010
0101
1010
0101
1010
0101
1010
0101
1010
0101
1010
0101
1010
0101
1010
0101
,
1010
0101
1010
0101
1010
0101
1010
0101
1010
0101
0000
1000
0100
0010
0001
1000
,
0010
0100
0001
1000
0100
0010
0001
1100
0011
1100
0011
1100
0011
1000
0010
0100
,
0001
1100
0011
1100
0011
1100
0011
1100
0011
1100
0011
1100
0011
1100
0011
1100
,
0011
1100
0011
1100
0011
1100
0011
1000
0010
0100
0001
1010
0101
1010
0101
1010
,
0101
1010
0101
1010
0101
1010
0101
1010
0101
1010
0101
1010
0101
1010
0101
1010
,
0101
1010
0101
1010
0101
1010
0101
1010
0101
1010
0101
1000
0100
0010
0001
1000
,
0000
1100
0000
0110
0000
0011
0000
1001
0000
0110
0000
1010
0000
0101
0000
1001
,
0000
0110
0000
1110
0000
0111
0000
1101
0000
1011
0000
0111
0000
1011
0000
1101
,
0000
0110
0000
1100
0000
0011
0000
1001
0000
1010
0000
0101
0000
1110
0000
0111
,
0000
1011
0000
1111
0000
1101
0000
0111
0000
1011
0000
1111
0000
1110
0000
1111
,
0000
0111
0000
1100
0000
0011
0000
1111
0000
1010
0000
0101
0000
1111
0000
0011
,
0000
1100
0000
1111
0000
0110
0000
1001
0000
1111
0000
0110
0000
1001
0000
1001
,
0000
1100
0000
0011
0000
1110
0000
1111
0000
0111
0000
1011
0000
1111
0000
1101
,
0000
1111
0000
1010
0000
0101
0000
1110
0000
1101
0000
1101
0000
1011
0000
0111
,
0000
1000
0100
0010
0001
1000
0100
1000
0001
0010
0001
1000
0100
1000
0001
0010
,
0001
1000
0100
0010
0001
1000
0100
0010
0001
1000
0100
0010
0001
1000
0100
1000
,
0001
0010
0001
1000
0100
1000
0001
0010
0001
1000
0100
1000
0100
1000
0001
1000
,
0001
1000
0001
1000
0001
1000
0010
1000
0010
1000
0010
1000
0100
1000
0011
0100
,
0011
1000
0100
1000
0011
0100
0011
1000
0100
1000
0011
0100
0011
1000
0011
1000
,
0011
1000
0010
0100
0001
1000
0100
1000
0111
1000
0101
1000
0011
1000
0100
1000
,
0001
0010
0100
1000
0100
0010
0001
1000
0010
0100
0001
1000
0011
1000
0100
0010
,
0001
1000
0101
1000
0101
1000
0010
1000
0101
1000
0100
1000
0101
1000
0010
1000
,
0011
1000
0100
0010
0001
1000
0010
0100
0001
1000
0100
0010
0001
1000
0010
0100
,
0001
2000
0000
0101
0000
0101
0000
0101
3000
0002
0000
1010
0000
1010
0000
1010
,
0000
1003
0100
0010
0001
1000
0010
0100
0001
1000
0010
0100
0001
1000
0010
0100
,
0001
1000
0100
0010
0001
1000
0100
0010
0101
1000
0100
0010
0101
1000
0100
0010
,
0101
1000
0100
0010
0101
1000
0001
1000
0001
1000
0100
0010
0001
1000
0010
0100
,
0001
1000
0010
0100
0001
1000
0010
0100
0001
1000
0010
0100
0002
1003
0100
0010
,
0001
1000
0010
0100
0001
1000
0010
0100
0001
1000
0100
1000
0010
0100
0010
1000
,
0100
1000
0010
0100
0001
1000
0100
1000
0001
0010
0001
1000
0100
1000
0001
0100
,
0010
0100
0010
1000
0001
1000
0001
1000
0010
0100
0001
0100
0010
1000
0010
1000
,
0010
1000
0010
1000
0010
1000
0001
0100
0010
1000
0010
0100
0001
1000
0010
0100
,
0010
1000
0001
0010
0001
0010
0001
1000
0100
1000
0100
1000
0100
0010
0001
1000
,
0100
0010
0001
1000
0010
0100
0001
1000
0111
1000
0111
1000
0111
1000
0111
1000
,
0111
1000
0111
1000
0100
1000
0001
1000
0111
1000
0110
1000
0011
0000
1000
0010
,
0100
0001
1000
0100
1000
0001
0010
0001
1000
0100
1000
0001
0100
0010
0100
0010
,
1000
0001
1000
0001
1000
0010
0100
0001
0100
0010
1000
0010
1000
0010
1000
0010
,
1000
0010
1000
0001
0100
0010
1000
0010
0100
0001
1000
0010
0100
0010
1000
0001
,
0010
0001
0010
0001
1000
0100
1000
0100
1000
0100
0010
0001
1000
0100
0010
0001
,
1000
0010
0100
0001
1000
0111
1000
0111
1000
0111
1000
0111
1000
0111
1000
0111
,
1000
0100
1000
0001
1000
0111
1000
0110
1000
0011
0000
0000
1000
0010
0100
0001
,
1000
0100
1000
0001
0010
0001
1000
0100
1000
0001
0100
0010
0100
0010
1000
0001
,
1000
0001
1000
0010
0100
0001
0100
0010
1000
0010
1000
0010
1000
0010
1000
0010
,
1000
0001
0100
0010
1000
0010
0100
0001
1000
0010
0100
0010
1000
0001
0010
0001
,
0010
0001
1000
0100
1000
0100
1000
0100
0010
0001
1000
0100
0010
0001
1000
0010
,
0100
0001
1000
0111
1000
0111
1000
0111
1000
0111
1000
0111
1000
0111
1000
0100
,
1000
0001
1000
0111
1000
0110
1000
0011
0000
0000
0100
1000
0100
0010
0100
1000
,
0100
0010
0001
1000
0001
1000
0001
1000
0100
0010
0001
1000
0010
0100
0001
1000
,
0010
0100
0001
1000
0010
0100
0001
1000
0010
0100
0002
1003
0100
0010
0001
1000
,
0010
0100
0001
1000
0010
0100
0001
1000
0100
1000
0010
0100
0010
1000
0100
1000
,
0010
0100
0001
1000
0100
1000
0001
0010
0001
1000
0100
1000
0001
0100
0010
0100
,
0010
1000
0001
1000
0001
1000
0010
0100
0001
0100
0010
1000
0010
1000
0010
1000
,
0010
1000
0010
1000
0001
0100
0010
1000
0010
0100
0001
1000
0010
0100
0010
1000
,
0001
0010
0001
0010
0001
1000
0100
1000
0100
1000
0100
0010
0001
1000
0100
0010
,
0001
1000
0010
0100
0001
1000
0111
1000
0111
1000
0111
1000
0111
1000
0111
1000
,
0111
1000
0100
1000
0001
1000
0111
1000
0110
1000
0100
0010
0001
0000
1000
0100
,
1000
0001
0010
0001
1000
0100
0010
0001
1000
0100
0010
0001
1000
0100
1000
0001
,
0010
0001
1000
0100
1000
0001
0010
0001
0000
0010
0100
1000
0100
0010
0100
1000
,
0100
0010
0001
1000
0001
1000
0001
1000
0100
0010
0001
1000
0010
0100
0001
1000
,
0010
0100
0001
1000
0010
0100
0001
1000
0010
0100
0001
1000
0100
0010
0001
1000
,
0010
0100
0001
1000
0010
0100
0001
1000
0100
1000
0010
0100
0010
1000
0100
1000
,
0010
0100
0001
1000
0100
1000
0001
0010
0001
1000
0100
1000
0001
0100
0010
0100
,
0010
1000
0001
1000
0001
1000
0010
0100
0001
0100
0010
1000
0010
1000
0010
1000
,
0010
1000
0010
1000
0001
0100
0010
1000
0010
0100
0001
1000
0010
0100
0010
1000
,
0001
0010
0001
0010
0001
1000
0100
1000
0100
1000
0100
0010
0001
1000
0100
0010
,
0001
1000
0010
0100
0001
1000
0111
1000
0111
1000
2222
0000
0000
0000
0000
0000
,
0000
0000
0000
0000
,
0000
0000
0000
0000
,
0000
0000
0000
0000
,
3333
0000
0000
0000
;
